<?xml version="1.0" standalone="no"?>
<!DOCTYPE svg PUBLIC "-//W3C//DTD SVG 1.1//EN" "http://www.w3.org/Graphics/SVG/1.1/DTD/svg11.dtd" >
<svg xmlns="http://www.w3.org/2000/svg">
<metadata>Generated by IcoMoon</metadata>
<defs>
<font id="icomoon" horiz-adv-x="1024">
<font-face units-per-em="1024" ascent="960" descent="-64" />
<missing-glyph horiz-adv-x="1024" />
<glyph unicode="&#x20;" horiz-adv-x="512" d="" />
<glyph unicode="&#xe900;" d="M274.258 180.703c-29.808 1.069-56.024 15.567-72.92 37.577l-0.171 0.233c0.061 0.108 1.449 2.711 2.211 4.192 7.099 13.698 11.259 29.893 11.259 47.070 0 18.817-5 36.473-13.742 51.7l0.27-0.503c17.065 22.246 43.281 36.74 72.918 37.818l0.173 0.006v59.427c-46.687-1.046-88.176-22.438-116.093-55.622l-0.192-0.235c-13.777 7.203-30.090 11.425-47.399 11.425-57.435 0-104-46.567-104-104s46.567-104 104-104c17.3 0 33.62 4.229 47.971 11.701l-0.577-0.276c28.106-33.427 69.605-54.824 116.113-55.862l0.18-0.004zM110.662 225.164c-24.621 0-44.573 19.952-44.573 44.573s19.952 44.573 44.573 44.573c24.621 0 44.573-19.952 44.573-44.573v0c-0.030-24.604-19.969-44.54-44.569-44.573h-0.004z" />
<glyph unicode="&#xe901;" d="M960.431 718.878c-13.776 7.203-30.088 11.426-47.399 11.426s-33.62-4.229-47.971-11.702l0.577 0.276c-27.481 34.19-69.251 55.908-116.105 56.006h-89.156c-49.23 0-89.146-39.912-89.146-89.146s39.912-89.146 89.146-89.146v0h29.718v-118.854h59.427c46.874 0.098 88.644 21.816 115.896 55.719l0.229 0.287c13.885-7.339 30.345-11.645 47.815-11.645 57.435 0 104 46.567 104 104 0 40.304-22.924 75.253-56.447 92.518l-0.586 0.276zM822.438 575.075c-16.362-23.003-42.903-37.835-72.91-37.902h-0.013v118.854h-89.146c-16.406 0-29.718 13.302-29.718 29.718s13.302 29.718 29.718 29.718v0h89.146c30.020-0.068 56.551-14.899 72.73-37.625l0.183-0.278c-8.469-14.741-13.466-32.403-13.466-51.236s4.997-36.495 13.737-51.742l-0.271 0.506zM912.946 581.752c-24.621 0-44.573 19.952-44.573 44.573s19.952 44.573 44.573 44.573c24.621 0 44.573-19.952 44.573-44.573v0c0-24.621-19.952-44.573-44.573-44.573v0z" />
<glyph unicode="&#xe902;" d="M960.303 362.351c-13.755 7.203-30.048 11.421-47.331 11.421s-33.568-4.227-47.905-11.696l0.574 0.275c-27.482 34.192-69.283 55.895-116.147 55.945h-0.010v59.427h-59.427v-386.289h-356.573v713.146h356.573v-29.718h59.427v89.146h-475.427v-89.146c-46.86-0.123-88.623-21.835-115.879-55.719l-0.229-0.287c-13.778 7.203-30.093 11.425-47.399 11.425-57.441 0-104.015-46.567-104.015-104.015s46.567-104.015 104.015-104.015c17.301 0 33.62 4.229 47.971 11.701l-0.577-0.276c27.489-34.165 69.27-55.875 116.119-55.974h0.020v-445.719h475.427v89.146c46.879 0.088 88.676 21.814 115.937 55.719l0.229 0.287c13.755-7.184 30.052-11.398 47.331-11.398 57.431 0 103.978 46.556 103.978 103.978 0 40.151-22.75 74.985-56.078 92.313l-0.578 0.276zM110.68 581.766c-24.613 0-44.559 19.946-44.559 44.559s19.946 44.559 44.559 44.559c24.613 0 44.559-19.946 44.559-44.559 0-0.010 0-0.021 0-0.027v0.002c-0.038-24.593-19.966-44.521-44.554-44.559h-0.005zM201.147 575.064c8.483 14.74 13.488 32.405 13.488 51.244s-5.006 36.504-13.755 51.748l0.27-0.504c16.389 22.986 42.928 37.82 72.933 37.902h0.017v-178.287c-30.027 0.089-56.556 14.934-72.759 37.655l-0.183 0.277zM822.438 218.508c-16.358-23.022-42.923-37.884-72.945-37.932h-0.010v178.287c30.030-0.054 56.584-14.902 72.759-37.653l0.183-0.279c-8.483-14.73-13.489-32.385-13.489-51.215s5.006-36.484 13.755-51.718l-0.27 0.503zM912.935 225.148c-0.004 0-0.009 0-0.015 0-24.622 0-44.588 19.959-44.588 44.588s19.959 44.588 44.588 44.588c24.622 0 44.588-19.959 44.588-44.588v0c0-0.004 0-0.009 0-0.015 0-24.613-19.946-44.559-44.559-44.559v0z" />
<glyph unicode="&#xe903;" d="M392.469 427.122l71.136-195.447 167.526 61.023-71.136 195.398zM499.119 307.835l-30.446 83.77 55.866 20.323 30.49-83.77z" />
<glyph unicode="&#xe904;" d="M938.113 327.553h-480.65c-9.132 54.196-41.704 99.328-86.722 125.301l-0.86 0.457c21.407 21.979 34.609 52.040 34.609 85.185 0 67.456-54.684 122.14-122.14 122.14s-122.14-54.684-122.14-122.14c0-33.145 13.202-63.206 34.635-85.212l-0.026 0.027c-45.817-26.462-78.335-71.587-87.292-124.714l-0.146-1.045h-65.729l-37.646-301.137h526.537c-6.675-17.877-10.539-38.534-10.539-60.093 0-0.073 0-0.147 0-0.22v0.011-30.151h354.719v30.151c0 0.062 0 0.136 0 0.209 0 21.559-3.863 42.215-10.935 61.315l0.396-1.222h111.573zM220.505 538.409c0 34.192 27.718 61.91 61.91 61.91s61.91-27.718 61.91-61.91c0-34.192-27.718-61.91-61.91-61.91v0c-34.192 0-61.91 27.718-61.91 61.91v0zM282.415 416.269c53.955-0.071 99.371-36.549 113.003-86.184l0.193-0.824h-226.405c13.829 50.455 59.242 86.931 113.187 87.007h0.009zM759.217 205.514c0-34.192-27.718-61.91-61.91-61.91s-61.91 27.718-61.91 61.91c0 34.192 27.718 61.91 61.91 61.91v0c34.192 0 61.91-27.718 61.91-61.91v0zM72.248 86.647l22.585 180.705h497.305c-10.615-17.702-16.893-39.058-16.893-61.88 0-33.121 13.222-63.154 34.676-85.108l-0.023 0.023c-16.322-9.405-30.317-20.607-42.395-33.614l-0.103-0.112zM584.169-3.706c13.766 50.499 59.22 87.014 113.203 87.014s99.437-36.514 113.011-86.192l0.191-0.822zM827.401 86.647c-12.182 13.118-26.177 24.319-41.64 33.268l-0.859 0.458c21.409 21.931 34.616 51.952 34.616 85.058 0 22.838-6.285 44.209-17.22 62.476l0.308-0.554h82.355l22.57-180.705z" />
<glyph unicode="&#xe905;" d="M692.669 448.057c89.118 0.116 163.135 64.629 178.020 149.497l0.158 1.086h149.147l-55.105 82.657c18.13 27.69 28.916 61.61 28.916 98.049 0 99.793-80.898 180.691-180.691 180.691-92.67 0-169.047-69.762-179.477-159.635l-0.079-0.841c-71.379-25.225-121.602-92.12-121.602-170.746 0-36.461 10.8-70.399 29.376-98.791l-0.424 0.69-55.105-82.657zM813.144 899.805c66.503-0.012 120.41-53.927 120.41-120.432 0-29.695-10.747-56.88-28.565-77.877l0.144 0.174-14.63-17.229 16.956-25.427h-94.315c-65.494 0.338-118.662 52.637-120.4 117.758l-0.003 0.161v2.872c0.366 66.28 54.141 119.877 120.453 119.958h0.008zM637.694 735.97c19.845-78.222 88.804-135.476 171.43-137.298l0.201-0.004c-13.885-52.376-60.822-90.365-116.646-90.453h-94.325l16.956 25.442-14.63 17.229c-17.701 20.835-28.465 48.044-28.465 77.766 0 46.46 26.302 86.776 64.828 106.872l0.666 0.316z" />
<glyph unicode="&#xe906;" d="M1021.725 960h-325.66v-60.302h205.185l-67.768-90.353 67.768-90.353h-205.185v-60.302h325.66l-112.937 150.583z" />
<glyph unicode="&#xe907;" d="M696.065 960h-61.321v-542.115h-90.353v-60.23h-180.691v-60.302h-180.719v-60.302h-180.705v-301.051h783.050v481.885h-90.353zM182.981-3.755h-120.475v180.705h120.475zM363.686-3.755h-120.475v240.935h120.489zM544.391-3.755h-120.475v301.108h120.475zM725.096-3.755h-120.475v361.41h120.475z" />
<glyph unicode="&#xe908;" d="M307.548 600.054l63.733-63.733 142.988 140.863v-58.421h60.302v160.533h-160.547v-60.302h56.871l-99.312-97.818-64.049 64.049-256.212-256.154 42.599-42.599z" />
<glyph unicode="&#xe909;" d="M30.128 960v-1024h722.827v825.651l-198.349 198.349zM572.248 857.176l77.883-77.883h-77.883zM90.368-3.76v903.519h421.639v-180.707h180.707v-722.812z" />
<glyph unicode="&#xe90a;" d="M493.619 190.8l-118.74-79.155 33.412-50.117 61.967 41.311 23.186-46.373h139.088v60.226h-101.903z" />
<glyph unicode="&#xe90b;" d="M903.527 839.534c-49.873-0.058-90.288-40.473-90.346-90.34v-671.457l90.346-141.546 90.346 141.546v671.451c-0.058 49.873-40.473 90.288-90.34 90.346h-0.006zM933.647 568.481h-60.24v60.226h60.24zM903.527 779.308c16.628-0.017 30.104-13.492 30.12-30.119v-60.242h-60.24v60.24c0.025 16.622 13.497 30.089 30.119 30.106h0.002zM933.647 95.393l-30.12-47.177-30.12 47.177v51.449h60.24zM873.406 207.067v301.173h60.24v-301.173z" />
<glyph unicode="&#xe90c;" d="M150.594 327.534h481.88v-60.24h-481.88z" />
<glyph unicode="&#xe90d;" d="M150.594 448h481.88v-60.24h-481.88z" />
<glyph unicode="&#xe90e;" d="M150.594 568.466h481.88v-60.24h-481.88z" />
<glyph unicode="&#xe90f;" d="M150.594 688.947h240.947v-60.24h-240.947z" />
<glyph unicode="&#xe910;" d="M150.594 809.413h240.947v-60.24h-240.947z" />
<glyph unicode="&#xe911;" d="M548.89 552.926c-9.13-1.922-19.62-3.023-30.368-3.023-15.101 0-29.694 2.173-43.484 6.223l1.089-0.274-133.691-231.556c14.579-11.555 27.36-24.321 38.558-38.402l0.369-0.481h255.664c10.328 18.105 23.713 33.268 39.609 45.285l0.371 0.269zM430.398 349.208l81.232 140.712 81.232-140.712z" />
<glyph unicode="&#xe912;" d="M957.334 321.619v0c-78.102 77.897-177.006 92.862-290.889 24.152-38.181-22.952-43.023-33.733-67.043-75.571-30.939-87.479-19.558-246.696 89.907-306.512 31.268-17.408 68.586-27.656 108.296-27.656 124.742 0 225.865 101.123 225.865 225.865 0 62.37-25.28 118.835-66.152 159.708v0zM726.188 12.488v0c9.12 31.428 37.649 54.012 71.453 54.012s62.333-22.584 71.322-53.487l0.131-0.525c-20.909-10.173-45.487-16.121-71.453-16.121s-50.544 5.947-72.445 16.554l0.992-0.433zM762.496 161.889c0 19.39 15.719 35.109 35.109 35.109s35.109-15.719 35.109-35.109c0-19.39-15.719-35.109-35.109-35.109v0c-19.39 0-35.109 15.719-35.109 35.109v0zM919.315 49.557v0c-10.653 22.174-26.402 40.419-45.796 53.74l-0.459 0.298c12.458 15.959 19.975 36.303 19.975 58.402 0 52.668-42.696 95.364-95.364 95.364s-95.364-42.696-95.364-95.364c0-22.1 7.517-42.444 20.135-58.614l-0.159 0.212c-19.857-13.62-35.61-31.864-45.918-53.228l-0.352-0.81c-27.237 29.425-43.944 68.94-43.944 112.357 0 91.464 74.146 165.61 165.61 165.61s165.61-74.146 165.61-165.61c0-43.417-16.707-82.932-44.044-112.466l0.1 0.109z" />
<glyph unicode="&#xe913;" d="M356.612 345.785c-96.051 71.227-242.586 48.845-315.026-52.663-25.682-36.162-41.056-81.21-41.056-129.849 0-124.742 101.123-225.865 225.865-225.865 74.971 0 141.41 36.527 182.493 92.755l0.446 0.64c50.264 70.48 46.928 166.883 14.321 239.455-17.379 39.731-36.571 51.858-67.043 75.571zM153.962 12.546c9.12 31.428 37.649 54.012 71.453 54.012s62.333-22.584 71.322-53.487l0.131-0.525c-20.909-10.174-45.486-16.122-71.453-16.122s-50.544 5.948-72.445 16.555l0.992-0.433zM190.285 161.948c0 19.39 15.719 35.109 35.109 35.109s35.109-15.719 35.109-35.109c0-19.39-15.719-35.109-35.109-35.109v0c-19.39 0-35.109 15.719-35.109 35.109v0zM347.089 49.615v0c-10.659 22.183-26.418 40.432-45.825 53.754l-0.46 0.298c12.458 15.959 19.975 36.303 19.975 58.402 0 52.668-42.696 95.364-95.364 95.364s-95.364-42.696-95.364-95.364c0-22.1 7.517-42.444 20.135-58.614l-0.159 0.212c-19.862-13.619-35.621-31.863-45.933-53.229l-0.352-0.809c-27.246 29.429-43.959 68.952-43.959 112.379 0 91.472 74.153 165.625 165.625 165.625s165.625-74.153 165.625-165.625c0-43.427-16.713-82.949-44.058-112.487l0.099 0.109z" />
<glyph unicode="&#xe914;" d="M460.943 513.941c15.209-2.859 32.707-4.494 50.586-4.494s35.376 1.635 52.35 4.764l-1.765-0.27c125.060 23.845 197.486 149.138 169.545 270.716-23.834 101.166-113.338 175.311-220.16 175.311-124.759 0-225.897-101.137-225.897-225.897 0-17.938 2.091-35.387 6.042-52.118l-0.305 1.532c19.368-84.334 97.031-156.35 169.545-169.545zM439.995 584.684c9.102 31.447 37.638 54.051 71.453 54.051s62.352-22.604 71.323-53.526l0.13-0.525c-20.897-10.237-45.476-16.223-71.453-16.223s-50.556 5.986-72.433 16.655l0.98-0.431zM476.318 734.086c0 19.39 15.719 35.109 35.109 35.109s35.109-15.719 35.109-35.109c0-19.39-15.719-35.109-35.109-35.109v0c-19.39 0-35.109 15.719-35.109 35.109v0zM345.816 734.086c0 0.051 0 0.112 0 0.173 0 91.48 74.159 165.639 165.639 165.639s165.639-74.159 165.639-165.639c0-43.459-16.736-83.008-44.115-112.555l0.098 0.107c-10.659 22.149-26.401 40.372-45.781 53.681l-0.459 0.298c12.453 15.957 19.968 36.297 19.968 58.393 0 52.668-42.696 95.364-95.364 95.364s-95.364-42.696-95.364-95.364c0-22.095 7.514-42.436 20.127-58.605l-0.159 0.212c-19.84-13.608-35.582-31.831-45.889-53.171l-0.352-0.809c-27.269 29.351-44.003 68.817-44.003 112.191 0 0.029 0 0.059 0 0.088v-0.005z" />
<glyph unicode="&#xe915;" d="M813.18 839.518v120.475h-692.698v-933.633h120.475v-90.353h464.239l198.322 198.336v705.175zM180.712 86.59v813.158h572.223v-60.23h-511.993v-752.928zM301.187 779.288h542.115v-602.345h-180.705v-180.705h-361.41zM800.703 116.712l-77.876-77.876v77.876z" />
<glyph unicode="&#xe916;" d="M361.417 719.058h421.64v-60.23h-421.64v60.23z" />
<glyph unicode="&#xe917;" d="M361.417 598.583h421.64v-60.23h-421.64v60.23z" />
<glyph unicode="&#xe918;" d="M361.417 478.108h421.64v-60.23h-421.64v60.23z" />
<glyph unicode="&#xe919;" d="M361.417 357.648h421.64v-60.23h-421.64v60.23z" />
<glyph unicode="&#xe91a;" d="M361.417 237.173h210.827v-60.23h-210.827v60.23z" />
<glyph unicode="&#xe91b;" d="M874.010 778.948c-83.255 0.098-150.719 67.563-150.817 150.808v30.179h-422.298v-30.198c-0.098-83.26-67.571-150.727-150.823-150.817h-30.207v-361.873c0-0.004 0-0.008 0-0.012 0-155.044 89.979-289.072 220.566-352.714l2.324-1.022c56.962-27.961 105.688-63.266 147.467-105.462l0.043-0.044 21.728-21.728 21.728 21.728c41.829 42.192 90.56 77.455 144.374 103.973l3.151 1.403c132.91 64.656 222.89 198.679 222.89 353.718 0 0.010 0 0.021 0 0.031v-0.001 362.031zM359.134 899.611h305.935c13.903-92.639 86.205-164.941 177.679-178.7l1.166-0.144v-243.468h-77.192c-15.616 128.017-123.647 226.21-254.612 226.21s-238.997-98.193-254.489-224.973l-0.123-1.236h-77.192v243.468c92.633 13.909 164.928 86.209 178.686 177.678l0.144 1.166zM466.854 447.144c0 0.004 0 0.009 0 0.014 0 24.993 20.261 45.254 45.254 45.254s45.254-20.261 45.254-45.254c0-24.993-20.261-45.254-45.254-45.254v0c-0.004 0-0.009 0-0.014 0-24.985 0-45.239 20.254-45.239 45.239v0zM512.108 341.566c42.538-0.042 78.209-29.395 87.906-68.949l0.129-0.621c-25.631-13.185-55.93-20.914-88.034-20.914s-62.403 7.729-89.138 21.428l1.103-0.513c9.825 40.175 45.496 69.529 88.030 69.57h0.005zM651.278 309.182c-12.465 29.103-32.804 52.835-58.346 69.133l-0.612 0.365c15.736 18.329 25.316 42.341 25.316 68.591 0 58.309-47.269 105.578-105.578 105.578s-105.578-47.269-105.578-105.578c0-26.25 9.58-50.263 25.434-68.732l-0.118 0.141c-26.152-16.666-46.49-40.397-58.58-68.512l-0.378-0.987c-35.168 35.428-56.902 84.234-56.902 138.115 0 108.287 87.784 196.071 196.071 196.071s196.071-87.784 196.071-196.071c0-53.881-21.734-102.687-56.913-138.127l0.012 0.012zM655.276 117.583c-54.822-26.772-101.971-59.243-143.589-97.623l0.407 0.371c-41.213 38.005-88.362 70.475-139.709 95.71l-3.473 1.542c-112.237 55.068-188.235 168.338-188.68 299.404v0.060h77.192c15.616-128.017 123.647-226.21 254.612-226.21s238.997 98.193 254.489 224.973l0.123 1.236h77.192c-0.472-131.090-76.449-244.324-186.69-298.52l-1.962-0.871z" />
<glyph unicode="&#xe91c;" d="M421.557 839.272h60.324v-60.324h-60.324v60.324z" />
<glyph unicode="&#xe91d;" d="M542.22 839.272h60.324v-60.324h-60.324v60.324z" />
<glyph unicode="&#xe91e;" d="M512.051 642.669c108.144 0 195.812-87.668 195.812-195.812s-87.668-195.812-195.812-195.812c-108.144 0-195.812 87.668-195.812 195.812 0 0.005 0 0.010 0 0.015v-0.001c0.131 108.089 87.723 195.675 195.801 195.798h0.012zM512.051 705.582c-142.882 0-258.711-115.829-258.711-258.711s115.829-258.711 258.711-258.711c142.882 0 258.711 115.829 258.711 258.711v0c0 142.882-115.829 258.711-258.711 258.711v0z" />
<glyph unicode="&#xe91f;" d="M765.615 416.803h82.063c12.759-35.301 45.981-60.075 84.99-60.075 49.792 0 90.156 40.364 90.156 90.156s-40.364 90.156-90.156 90.156c-39.009 0-72.231-24.774-84.791-59.447l-0.199-0.628h-82.063c-5.931 48.993-24.989 92.677-53.511 128.488l0.397-0.516 77.522 77.522c19.902-12.571 44.121-20.031 70.082-20.031 73.24 0 132.612 59.373 132.612 132.612s-59.373 132.612-132.612 132.612c-73.24 0-132.612-59.373-132.612-132.612 0-25.961 7.46-50.18 20.354-70.63l-0.323 0.548-77.508-77.522c-35.294 28.126-78.978 47.184-126.75 52.993l-1.222 0.121v81.948c35.301 12.759 60.075 45.981 60.075 84.99 0 49.792-40.364 90.156-90.156 90.156s-90.156-40.364-90.156-90.156c0-39.009 24.774-72.231 59.447-84.791l0.628-0.199v-82.077c-48.993-5.921-92.678-24.975-128.487-53.496l0.516 0.397-77.522 77.522c12.577 19.906 20.040 44.132 20.040 70.101 0 73.248-59.379 132.627-132.627 132.627s-132.627-59.379-132.627-132.627c0-73.248 59.379-132.627 132.627-132.627 25.969 0 50.194 7.464 70.649 20.363l-0.548-0.322 77.522-77.522c-28.123-35.294-47.177-78.978-52.979-126.751l-0.121-1.221h-82.063c-12.757 35.284-45.966 60.047-84.959 60.047-49.776 0-90.127-40.351-90.127-90.127s40.351-90.127 90.127-90.127c38.993 0 72.202 24.762 84.76 59.419l0.199 0.627h82.063c5.922-48.993 24.976-92.677 53.497-128.488l-0.397 0.516-77.522-77.522c-19.915 12.587-44.154 20.057-70.136 20.057-73.264 0-132.655-59.392-132.655-132.655s59.392-132.655 132.655-132.655c73.264 0 132.655 59.392 132.655 132.655 0 25.967-7.461 50.192-20.356 70.647l0.323-0.548 77.579 77.637c35.293-28.124 78.978-47.179 126.751-52.979l1.221-0.121v-82.12c-35.293-12.758-60.061-45.974-60.061-84.974 0-49.784 40.358-90.141 90.141-90.141s90.141 40.358 90.141 90.141c0 39.001-24.768 72.217-59.433 84.776l-0.627 0.199v82.063c48.972 5.952 92.63 25.024 128.414 53.552l-0.514-0.396 77.522-77.522c-12.578-19.91-20.043-44.14-20.043-70.113 0-73.264 59.392-132.655 132.655-132.655s132.655 59.392 132.655 132.655c0 73.264-59.392 132.655-132.655 132.655-25.973 0-50.203-7.464-70.661-20.365l0.548 0.323-77.522 77.522c28.126 35.294 47.185 78.978 52.993 126.75l0.121 1.222zM466.915 446.884c0 0.004 0 0.009 0 0.014 0 24.896 20.182 45.078 45.078 45.078s45.078-20.182 45.078-45.078c0-24.896-20.182-45.078-45.078-45.078-0.005 0-0.010 0-0.015 0h0.001c-24.885 0.008-45.055 20.179-45.064 45.063v0.001zM511.979 341.717c42.371-0.050 77.897-29.294 87.55-68.696l0.128-0.618c-25.528-13.137-55.707-20.838-87.685-20.838s-62.156 7.701-88.783 21.349l1.098-0.511c9.781 40.025 45.315 69.271 87.687 69.314h0.005zM932.634 476.922c16.613 0 30.081-13.468 30.081-30.081s-13.468-30.081-30.081-30.081c-16.613 0-30.081 13.468-30.081 30.081v0c0 16.613 13.468 30.081 30.081 30.081v0zM808.817 846.225c13.072 12.994 31.089 21.025 50.982 21.025 39.942 0 72.322-32.38 72.322-72.322s-32.38-72.322-72.322-72.322c-39.942 0-72.322 32.38-72.322 72.322 0 19.893 8.032 37.91 21.029 50.985l0.312 0.312zM511.993 897.52c16.613 0 30.081-13.468 30.081-30.081s-13.468-30.081-30.081-30.081c-16.613 0-30.081 13.468-30.081 30.081v0c0 16.613 13.468 30.081 30.081 30.081v0zM511.993 642.121c0.026 0 0.058 0 0.089 0 107.811 0 195.209-87.398 195.209-195.209 0-53.66-21.651-102.264-56.695-137.551l0.011 0.011c-12.412 28.993-32.673 52.633-58.119 68.865l-0.61 0.364c15.675 18.257 25.218 42.176 25.218 68.324 0 58.082-47.085 105.167-105.167 105.167s-105.167-47.085-105.167-105.167c0-26.148 9.543-50.067 25.335-68.465l-0.118 0.141c-26.055-16.596-46.316-40.236-58.353-68.246l-0.376-0.983c-35.024 35.274-56.669 83.872-56.669 137.526 0 107.811 87.398 195.209 195.209 195.209 0.036 0 0.073 0 0.109 0h-0.006zM112.48 743.622c-13.125 13.126-21.243 31.259-21.243 51.288 0 40.061 32.476 72.537 72.537 72.537s72.537-32.476 72.537-72.537c0-20.029-8.118-38.162-21.243-51.289v0c-13.129-13.125-31.264-21.243-51.295-21.243s-38.166 8.118-51.295 21.243v0zM91.338 416.803c-16.613 0-30.081 13.468-30.081 30.081s13.468 30.081 30.081 30.081c16.613 0 30.081-13.468 30.081-30.081v0c0-16.613-13.468-30.081-30.081-30.081v0zM215.169 47.443c-13.126-13.125-31.259-21.243-51.288-21.243-40.061 0-72.537 32.476-72.537 72.537s32.476 72.537 72.537 72.537c20.029 0 38.162-8.118 51.289-21.243v0c13.125-13.129 21.243-31.264 21.243-51.295s-8.118-38.166-21.243-51.295v0zM511.993-3.852c-16.613 0-30.081 13.468-30.081 30.081s13.468 30.081 30.081 30.081c16.613 0 30.081-13.468 30.081-30.081v0c0-16.613-13.468-30.081-30.081-30.081v0zM911.406 150.032c13.125-13.126 21.243-31.259 21.243-51.288 0-40.061-32.476-72.537-72.537-72.537s-72.537 32.476-72.537 72.537c0 20.029 8.118 38.162 21.243 51.289v0c13.129 13.125 31.264 21.243 51.295 21.243s38.166-8.118 51.295-21.243v0z" />
<glyph unicode="&#xe920;" d="M859.424 165.573c36.936 0 66.879-29.943 66.879-66.879s-29.943-66.879-66.879-66.879c-36.936 0-66.879 29.943-66.879 66.879v0c0.041 36.92 29.959 66.838 66.875 66.879h0.004zM859.424 233.684c-0.004 0-0.009 0-0.014 0-74.553 0-134.99-60.437-134.99-134.99s60.437-134.99 134.99-134.99c74.553 0 134.99 60.437 134.99 134.99v0c0 74.548-60.429 134.982-134.975 134.99h-0.001z" />
<glyph unicode="&#xe921;" d="M511.979 891.876c13.449 0 24.351-10.902 24.351-24.351s-10.902-24.351-24.351-24.351c-13.449 0-24.351 10.902-24.351 24.351v0c0.049 13.429 10.922 24.302 24.346 24.351h0.005zM511.979 959.987c-51.083-0.008-92.491-41.421-92.491-92.505 0-51.089 41.416-92.505 92.505-92.505s92.505 41.416 92.505 92.505v0c0 51.089-41.416 92.505-92.505 92.505-0.005 0-0.010 0-0.015 0h0.001z" />
<glyph unicode="&#xe922;" glyph-name="more" d="M0.113 397.066h463.643v-460.976h99.155v460.976h460.976v99.2h-460.976v463.643h-99.155v-463.643h-463.643z" />
<glyph unicode="&#xe923;" glyph-name="close" d="M1024.023 892.141l-67.971 67.791-446.469-441.679-441.814 441.679-67.791-67.791 441.633-441.633-441.633-446.65 67.791-67.791 441.633 446.469 446.469-446.469 67.791 67.791-446.108 446.469z" />
<glyph unicode="&#xe924;" glyph-name="light" d="M707.283 598.611c-7.992 101.573-92.383 180.969-195.319 180.969s-187.327-79.396-195.275-180.289l-0.043-0.68c3.142-91.913 72.569-166.686 161.813-178.155l0.927-0.097v95.232l-93.98 57.989 36.105 50.138 57.875-35.726v91.022h65.081v-91.022l57.875 35.726 36.105-50.138-94.018-57.989v-95.118c90.182 11.507 159.647 86.239 162.845 177.82l0.009 0.318zM316.987 86.649c9.126-85.047 80.506-150.694 167.219-150.694 1.932 0 3.857 0.033 5.774 0.097l-0.279-0.007h44.487c1.638-0.057 3.563-0.090 5.495-0.090 86.713 0 158.094 65.647 167.155 149.953l0.065 0.741zM512.002 960.045c-215.419 0-390.637-162.133-390.637-361.396-0.076-2.562-0.119-5.577-0.119-8.601 0-52.931 13.223-102.773 36.547-146.403l-0.815 1.67c7.585-13.426 114.043-176.204 114.043-176.204 22.97-34.732 38.638-76.231 43.832-120.924l0.124-1.311h164.409v212.689c-125.094 10.744-223.185 112.682-227.808 238.488l-0.013 0.446c10.779 135.305 123.234 241.021 260.38 241.021s249.602-105.716 260.322-240.105l0.059-0.916c-4.636-126.252-102.727-228.189-226.895-238.869l-0.926-0.064v-212.689h164.409c5.318 46.005 20.986 87.503 44.609 123.288l-0.653-1.053 80.555 124.245c10.641 14.584 21.71 31.546 31.929 49.064l1.56 2.894c22.575 42.012 35.84 91.926 35.84 144.939 0 2.952-0.041 5.895-0.123 8.828l0.010-0.432c0 199.263-175.332 361.396-390.637 361.396z" />
<glyph unicode="&#xe925;" glyph-name="play" d="M957.218 448l-890.435-512v1024z" />
<glyph unicode="&#xe926;" glyph-name="idea" d="M834.015 778.579c-16.567 0-29.998-13.43-29.998-29.998s13.43-29.998 29.998-29.998h59.995c16.567 0 29.998 13.43 29.998 29.998s-13.43 29.998-29.998 29.998v0zM802.96 605.541l58.002-28.004c3.814-1.884 8.303-2.986 13.050-2.986 16.573 0 30.008 13.435 30.008 30.008 0 11.826-6.841 22.055-16.782 26.944l-0.176 0.078-58.002 28.004c-3.81 1.88-8.294 2.98-13.035 2.98-16.57 0-30.002-13.432-30.002-30.002 0-11.828 6.845-22.058 16.79-26.944l0.176-0.078zM816.010 834.587c4.741 0.012 9.218 1.126 13.194 3.099l-0.174-0.078 58.002 28.004c10.117 4.967 16.958 15.196 16.958 27.022 0 16.573-13.435 30.008-30.008 30.008-4.747 0-9.237-1.102-13.227-3.065l0.176 0.078-58.002-28.004c-10.142-4.956-17.004-15.195-17.004-27.037 0-16.567 13.43-29.998 29.998-29.998 0.020 0 0.039 0 0.059 0h-0.003zM129.99 718.584h59.995c16.567 0 29.998 13.43 29.998 29.998s-13.43 29.998-29.998 29.998h-59.995c-16.567 0-29.998-13.43-29.998-29.998s13.43-29.998 29.998-29.998v0zM194.94 659.616l-58.002-28.004c-10.117-4.967-16.958-15.196-16.958-27.022 0-16.573 13.435-30.008 30.008-30.008 4.747 0 9.237 1.102 13.227 3.065l-0.176-0.078 58.002 28.004c10.117 4.967 16.958 15.196 16.958 27.022 0 16.573-13.435 30.008-30.008 30.008-4.747 0-9.237-1.102-13.227-3.065l0.176 0.078zM136.938 865.552l58.002-28.004c3.814-1.884 8.303-2.986 13.050-2.986 16.573 0 30.008 13.435 30.008 30.008 0 11.826-6.841 22.055-16.782 26.944l-0.176 0.078-58.002 28.004c-3.814 1.884-8.303 2.986-13.050 2.986-16.573 0-30.008-13.435-30.008-30.008 0-11.826 6.841-22.055 16.782-26.944l0.176-0.078zM926.968 193.76l-119.991 149.988c-5.456 8.097-14.591 13.351-24.953 13.352h-240.012v-99.086l65.040-97.485c5.456-8.097 14.591-13.351 24.953-13.352h270.010c16.566 0.002 29.995 13.432 29.995 29.998 0 6.204-1.883 11.968-5.11 16.752l0.068-0.107zM217.023 343.718l-119.991-149.958c-3.158-4.677-5.042-10.441-5.042-16.645 0-16.566 13.429-29.996 29.994-29.998h270.010c10.362 0.001 19.497 5.256 24.885 13.246l0.068 0.107 65.040 97.545v99.086h-240.012c-10.367-0.008-19.503-5.274-24.885-13.275l-0.068-0.107zM557.117 127.179l-15.105 22.657v-213.911h240.012c16.567 0 29.998 13.43 29.998 29.998v0 121.048h-179.986c-0.014 0-0.031 0-0.048 0-31.125 0-58.552 15.833-74.666 39.884l-0.205 0.324zM392.024 86.971h-180.016v-120.837c0-16.567 13.43-29.998 29.998-29.998v0h240.012v213.76l-15.105-22.657c-16.31-24.404-43.747-40.261-74.887-40.269h-0.001zM399.577 502.588h224.877v-85.522h-224.877zM399.577 562.584h224.937c0 13.322 9.063 25.013 25.104 44.498 37.551 39.582 60.645 93.201 60.645 152.213 0 0.917-0.006 1.833-0.017 2.748l0.001-0.139c0 109.447-88.725 198.172-198.172 198.172s-198.172-88.725-198.172-198.172v0c-0.010-0.776-0.015-1.691-0.015-2.609 0-59.013 23.094-112.631 60.737-152.311l-0.092 0.098c15.95-19.485 25.013-31.176 25.043-44.498zM447.005 720.427c5.457 8.095 14.592 13.349 24.953 13.349 6.204 0 11.968-1.883 16.751-5.109l-0.107 0.068 23.412-15.618 23.412 15.618c4.783 3.368 10.729 5.384 17.147 5.384 16.567 0 29.998-13.43 29.998-29.998 0-10.599-5.497-19.914-13.795-25.25l-0.119-0.072-40.057-26.705c-4.671-3.146-10.424-5.022-16.615-5.022s-11.944 1.876-16.722 5.090l0.107-0.068-40.027 26.735c-8.107 5.455-13.37 14.597-13.37 24.967 0 6.198 1.88 11.957 5.1 16.738l-0.068-0.107z" />
<glyph unicode="&#xe927;" glyph-name="adobe-acrobat" d="M472.203 641.427v0c5.528 14.948 9.546 32.316 11.296 50.347l0.068 0.863v11.363c2.963 8.481 4.674 18.257 4.674 28.433s-1.711 19.953-4.862 29.057l0.188-0.624v5.607l-5.707 5.806c0.001-0.045 0.002-0.098 0.002-0.151 0-3.069-2.488-5.558-5.558-5.558-0.053 0-0.106 0.001-0.159 0.002h0.008c-5.473-18.753-8.621-40.295-8.621-62.573s3.148-43.82 9.024-64.207l-0.403 1.633zM301.503 248.867c-10.858-4.737-20.22-10.456-28.674-17.257l0.241 0.187c-30.467-24.664-55.311-54.962-73.201-89.448l-0.736-1.559c34.14 5.707 68.28 39.698 102.42 108.077zM824.867 334.217c-5.707 5.707-28.433 22.777-108.077 22.777h-11.363v-5.707c31.543-15.267 68.286-25.438 107.051-28.371l1.026-0.062h17.070v5.707c-0.030-0.001-0.065-0.001-0.1-0.001-3.069 0-5.558 2.488-5.558 5.558 0 0.035 0 0.070 0.001 0.105v-0.005zM910.217 960h-796.433c-62.761-0.197-113.586-51.022-113.783-113.764v-796.452c0.197-62.761 51.022-113.586 113.764-113.783h796.452c62.761 0.197 113.586 51.022 113.783 113.764v796.452c-0.197 62.761-51.022 113.586-113.764 113.783h-0.019zM847.643 288.713c-14.475-7.177-31.52-11.376-49.546-11.376-0.585 0-1.169 0.004-1.752 0.013l0.088-0.001c-62.168 0.851-120.736 15.404-173.094 40.765l2.444-1.068c-83.397-6.258-160.826-22.437-234.16-47.458l6.594 1.954c-5.707 0-5.707 0-11.363-5.707-68.28-119.49-125.147-176.357-170.65-176.357-11.363 0-17.070 0-22.777 5.707l-28.433 17.070v5.707c-3.721 6.929-5.907 15.16-5.907 23.901 0 1.595 0.073 3.174 0.215 4.732l-0.015-0.2c20.096 52.618 58.298 94.521 106.818 118.916l1.259 0.574c11.363 5.707 28.433 17.070 51.21 28.433 17.070 28.433 34.14 62.573 56.867 102.42 21.868 45.321 43.147 100.038 60.385 156.518l2.238 8.525c-14.789 31.936-23.414 69.312-23.414 108.703 0 28.214 4.425 55.395 12.62 80.886l-0.519-1.869c5.707 22.777 22.777 45.503 45.503 45.503h11.363c12.768-1.273 24.368-5.334 34.49-11.564l-0.35 0.2c39.698-39.698 22.777-130.853 0-204.79v-5.905c20.628-57.593 51.644-106.93 91.14-148.063l-0.133 0.14c14.932-11.817 31.669-23.11 49.239-33.107l1.971-1.032c28.433 0 51.21 5.707 73.937 5.707 68.28 0 113.783-11.363 130.853-39.698 3.74-8.434 5.918-18.271 5.918-28.618 0-1.943-0.077-3.869-0.228-5.774l0.016 0.252c-7.77-13.138-15.306-24.249-23.441-34.878l0.615 0.837zM477.86 510.573c-18.95-54.707-38.157-99.795-59.969-143.351l3.102 6.84c-11.363-22.777-22.777-39.698-34.14-62.573h11.363c54.045 22.301 117.2 40.144 182.827 50.569l4.894 0.641c-8.856 4.454-16.395 10.171-22.729 17.018l-0.048 0.052c-32.888 37.838-61.36 80.863-83.796 127.347l-1.504 3.457z" />
<glyph unicode="&#xe928;" glyph-name="phone" d="M725.476 368.268l-146.627-146.627-293.205 293.254 146.627 146.578c8.066 8.051 13.055 19.181 13.055 31.476s-4.99 23.425-13.055 31.475l-222.502 222.648c-8.051 8.066-19.181 13.055-31.476 13.055s-23.425-4.99-31.475-13.055l-146.726-146.628c-0.139-5.727-0.219-12.472-0.219-19.236 0-466.866 378.47-845.336 845.336-845.336 6.764 0 13.509 0.079 20.235 0.237l-0.999-0.019 146.627 146.627c8.066 8.051 13.055 19.181 13.055 31.476s-4.99 23.425-13.055 31.475l-222.599 222.599c-8.064 8.057-19.2 13.039-31.5 13.039s-23.436-4.983-31.501-13.040v0z" />
<glyph unicode="&#xe929;" glyph-name="world" d="M512 960c-282.77 0-512-229.23-512-512s229.23-512 512-512c282.77 0 512 229.23 512 512v0c-0.316 282.643-229.358 511.685-511.97 512h-0.030zM512 21.333c-107.023 0.010-204.791 39.629-279.445 104.997l0.49-0.421c0.341 0.555 0.811 1.024 1.109 1.579 70.485 118.101 26.155 190.251-6.571 222.763-8.72 8.37-18.055 16.311-27.85 23.673l-0.78 0.561c-26.539 20.608-44.117 34.133-44.117 73.515 0 18.517 10.325 25.6 61.312 43.179 39.959 9.742 74.153 30.386 100.321 58.583l0.116 0.127c59.733 76.8-5.931 195.669-19.669 218.709-7.862 13.032-15.323 23.974-23.311 34.494l0.697-0.958c62.712 42.619 139.478 69.056 222.244 71.79l0.689 0.018c15.998-23.254 34.811-43.112 56.271-59.711l0.603-0.449c18.432-15.872 47.701-22.528 62.763-41.301 8.533-10.752 4.267-31.488 4.736-45.056-0.003-0.242-0.005-0.527-0.005-0.813 0-36.218 29.361-65.579 65.579-65.579 2.21 0 4.395 0.109 6.549 0.323l-0.272-0.022q3.627 0 7.552 0.256c58.71 9.464 110.618 22.927 160.506 40.654l-6.309-1.955c52.075-69.825 83.374-157.807 83.374-253.099 0-235.194-190.662-425.856-425.856-425.856-0.256 0-0.512 0-0.768 0.001h0.040zM661.931 580.267c-0.566 0.005-1.235 0.008-1.905 0.008-67.757 0-128.323-30.788-168.472-79.137l-0.29-0.36c-15.176-19.251-24.341-43.855-24.341-70.601 0-11.908 1.817-23.392 5.189-34.189l-0.218 0.812c11.774-27.809 18.616-60.146 18.616-94.082 0-22.683-3.057-44.653-8.782-65.518l0.406 1.734c-4.916-11.218-7.777-24.292-7.777-38.034 0-41.734 26.384-77.305 63.382-90.944l0.672-0.217c12.412-5.13 26.824-8.109 41.932-8.109 0.258 0 0.517 0.001 0.775 0.003h-0.040c67.643 7.138 126.576 39.628 167.998 87.648l0.279 0.331c59.859 55.602 98.843 132.962 104.315 219.424l0.048 0.95c-6.016 95.448-84.902 170.584-181.336 170.584-3.677 0-7.328-0.109-10.95-0.325l0.499 0.024z" />
<glyph unicode="&#xe92a;" glyph-name="marker" d="M512 960c-0.076 0-0.166 0-0.256 0-197.797 0-358.144-160.347-358.144-358.144 0-0.090 0-0.18 0-0.27v0.014c0-268.8 358.4-665.6 358.4-665.6s358.4 396.8 358.4 665.6c0 0.076 0 0.166 0 0.256 0 197.797-160.347 358.144-358.144 358.144-0.090 0-0.18 0-0.27 0h0.014zM512 473.6c-70.692 0-128 57.308-128 128s57.308 128 128 128c70.692 0 128-57.308 128-128v0c0-70.692-57.308-128-128-128v0z" />
<glyph unicode="&#xe92b;" glyph-name="search" d="M747.84 286.042l260.977-260.977c9.454-9.454 15.301-22.514 15.301-36.941 0-28.852-23.389-52.242-52.242-52.242-14.426 0-27.487 5.847-36.941 15.301l-260.977 260.977c-69.983-54.734-159.241-87.767-256.214-87.767-230.779 0-417.862 187.083-417.862 417.862s187.083 417.862 417.862 417.862c230.779 0 417.862-187.083 417.862-417.862 0-96.973-33.033-186.231-88.46-257.136l0.694 0.921zM639.307 320.728c56.706 56.711 91.779 135.054 91.779 221.589 0 173.079-140.309 313.388-313.388 313.388s-313.388-140.309-313.388-313.388c0-86.535 35.073-164.878 91.779-221.589v0c56.715-56.728 135.073-91.817 221.626-91.817 86.536 0 164.88 35.074 221.592 91.782v0z" />
<glyph unicode="&#xe92c;" glyph-name="send" d="M633.959-63.82c-0.079 0-0.173-0.001-0.266-0.001-18.987 0-35.439 10.851-43.494 26.69l-0.128 0.277-144.732 289.464c-3.254 6.36-5.161 13.874-5.161 21.834 0 10.383 3.245 20.008 8.777 27.917l-0.104-0.158 233.873 316.675-316.724-233.581c-7.751-5.427-17.376-8.672-27.759-8.672-7.96 0-15.474 1.907-22.11 5.289l0.277-0.128-289.416 144.44c-16.134 8.177-27 24.638-27 43.638 0 20.869 13.109 38.675 31.541 45.636l0.336 0.111 926.52 341.35c5.010 1.903 10.804 3.005 16.854 3.005 26.932 0 48.764-21.832 48.764-48.764 0-6.051-1.102-11.844-3.116-17.19l0.111 0.336-341.35-926.52c-6.758-17.929-23.289-30.671-42.93-31.788l-0.129-0.006z" />
<glyph unicode="&#xe92d;" glyph-name="board" d="M48.762 960h243.81v-292.571h-292.571v243.81c0 26.93 21.831 48.762 48.762 48.762v0zM0 569.905h292.571v-243.81h-292.571v243.81zM0 228.571h292.571v-292.571h-243.81c-26.93 0-48.762 21.831-48.762 48.762v0 243.81zM390.095 569.905h633.905v-243.81h-633.905v243.81zM390.095 228.571h633.905v-243.81c0-26.93-21.831-48.762-48.762-48.762v0h-585.143v292.571zM390.095 960h243.81v-292.571h-243.81v292.571zM731.429 960h243.81c26.93 0 48.762-21.831 48.762-48.762v0-243.81h-292.571v292.571z" />
<glyph unicode="&#xe92e;" glyph-name="healthcare" d="M841.904 748.16c0 0.002 0 0.005 0 0.008 0 116.346-93.781 210.788-209.873 211.859l-0.102 0.001c-47.589-0.483-90.25-21.18-119.877-53.901l-0.125-0.14c-29.751 32.86-72.413 53.557-119.915 54.040l-0.086 0.001c-116.207-1.055-210.003-95.504-210.003-211.86 0-0.003 0-0.006 0-0.009v0c0-116.443 85.453-176.585 184.41-246.219 47.732-32.613 88.766-64.028 128.071-97.417l-2.165 1.794 19.633-16.949 19.774 16.949c48.475 41.95 94.606 74.803 135.256 103.759 97.826 69.634 175.144 124.663 175.144 238.083zM601.787 658.159h-60.001v-60.001h-60.001v59.86h-59.86v60.001h60.001v60.001h60.001v-60.001h60.001zM987.924 685.617c-61.187 0-77.007-284.411-78.193-290.4-10.959-57.343-41.627-106.134-84.545-140.14l-0.485-0.371-129.946-94.352-35.961 48.023 129.946 94.324c51.47 38.588 74.945 104.522 10.593 104.522-57.628 0-165.313-66.696-197.235-93.222-36.874-30.722-60.17-76.657-60.17-128.033 0-0.017 0-0.034 0-0.051v0.003-249.948h180.003c3.135 35.037 17.6 66.206 39.654 90.316l-0.106-0.117c30.517 36.764 62.712 69.719 97.369 99.92l1.023 0.872c70.792 66.611 144.070 135.002 153.788 204.608 6.5 57.657 10.208 124.494 10.208 192.198 0 2.178-0.004 4.355-0.012 6.531l0.001-0.335c-0.198 80.114-6.978 153.082-35.933 155.652zM414.722 319.65c-84.606 58.193-148.788 87.572-190.201 87.572-64.323 0-40.876-65.905 10.593-104.522l129.946-94.324-35.989-48.023-129.946 94.352c-43.404 34.375-74.074 83.167-84.796 139.049l-0.233 1.461c-1.215 5.989-16.949 290.4-78.193 290.4-33.588-2.966-37.261-100.764-35.368-194.382 1.215-68.391 6.61-135.002 9.605-159.607 9.605-69.606 82.996-137.997 153.788-204.608 35.68-31.074 67.874-64.029 97.265-99.398l1.127-1.395c21.949-23.993 36.414-55.162 39.506-89.608l0.043-0.591h180.003v248.761c0 0.023 0 0.051 0 0.079 0 54.877-26.18 103.64-66.732 134.479l-0.416 0.303z" />
<glyph unicode="&#xe92f;" glyph-name="wireless" d="M511.938 544.085c-0.21 0.001-0.456 0.001-0.703 0.001-122.81 0-230.56-64.445-291.294-161.358l-0.84-1.441c-5.018-7.922-8-17.577-8-27.927 0-29.125 23.607-52.729 52.729-52.729 18.769 0 35.258 9.806 44.588 24.587l0.129 0.22c42.924 68.387 117.915 113.167 203.374 113.167s160.452-44.79 202.786-112.177l0.582-0.99c9.406-15.309 26.059-25.373 45.075-25.373 29.122 0 52.725 23.603 52.725 52.725 0 10.593-3.128 20.448-8.503 28.705l0.124-0.201c-61.55 98.345-169.305 162.799-292.098 162.799-0.23 0-0.482 0-0.714-0.001h0.034zM1008.613 508.245c-105.036 166.636-288.085 275.738-496.613 275.738s-391.578-109.090-495.194-273.314l-1.419-2.414c-5.018-7.922-8-17.577-8-27.927 0-29.125 23.607-52.729 52.729-52.729 18.769 0 35.258 9.806 44.588 24.587l0.129 0.22c86.101 136.658 236.186 226.134 407.18 226.134s321.080-89.477 406.014-224.149l1.161-1.985c9.47-14.985 25.947-24.799 44.717-24.799 29.125 0 52.729 23.607 52.729 52.729 0 10.353-2.981 20.005-8.126 28.147l0.129-0.22zM598.746 198.772c0-47.914-38.841-86.755-86.755-86.755s-86.755 38.841-86.755 86.755c0 47.914 38.841 86.755 86.755 86.755s86.755-38.841 86.755-86.755z" />
<glyph unicode="&#xe930;" glyph-name="chevron-down-light" d="M538.744 186.166l465.672 467.006c7.913 7.194 12.866 17.53 12.866 29.028 0 21.622-17.532 39.154-39.154 39.154-11.531 0-21.884-4.973-29.057-12.9l-0.027-0.034-438.065-439.158-437.928 439.212c-7.026 6.784-16.622 10.977-27.18 10.977-21.622 0-39.154-17.532-39.154-39.154 0-10.54 4.153-20.1 10.919-27.137l-0.016 0.016 465.672-467.006c7.089-7.123 16.886-11.523 27.714-11.523s20.625 4.4 27.711 11.52l0.003 0.003z" />
<glyph unicode="&#xe931;" glyph-name="chevron-down" d="M1014.589 654.589l-86.339 89.41-416.245-416.245-416.245 416.245-86.339-89.41 502.589-502.589z" />
<glyph unicode="&#xe932;" glyph-name="chevron-right" d="M195.625 56.751l391.249 391.249-391.249 391.249 120.751 120.751 512-512-512-512z" />
<glyph unicode="&#xe933;" glyph-name="chevron-left" d="M828.376 56.751l-391.249 391.249 391.249 391.249-120.751 120.751-512-512 512-512z" />
<glyph unicode="&#xe934;" glyph-name="chevron-down-small" d="M1024.005 704.003l-512.005-512.005-512.005 512.005z" />
<glyph unicode="&#xe935;" glyph-name="player-3d" d="M1015.508 383.397c0-72.227-56.281-137.635-158.494-184.179-64.192-28.622-138.636-49.145-216.663-57.811l-3.417-0.31v75.417c183.848 24.105 303.62 98.673 303.62 166.897-1.576 23.499-12.184 44.246-28.345 59.019l-0.070 0.062v95.37c67.112-42.928 103.366-96.556 103.366-154.473zM534.736 184.024l-188.891-132.198v95.205c-66.998 10.624-127.16 28.849-183.492 54.102l4.56-1.826c-102.138 46.453-158.421 111.876-158.421 184.088 0 59.343 38.090 114.193 108.477 157.622v-93.555c-18.914-15.516-31.472-38.177-33.503-63.807l-0.024-0.321c0-63.051 102.138-131.441 262.393-160.462v93.259l153.561-107.44zM731.705 621.648l-352.332-222.526v445.054z" />
<glyph unicode="&#xe936;" glyph-name="facebook" d="M886.030 960h-748.026c-0.021 0-0.047 0-0.072 0-76.198 0-137.969-61.771-137.969-137.969v0-748.026c0-76.198 61.771-137.969 137.969-137.969v0h368.999l0.613 365.933h-95.045c0 0 0 0 0 0-12.353 0-22.374 9.983-22.435 22.322v0.006l-0.469 117.95c0 0.021 0 0.047 0 0.072 0 12.391 10.045 22.436 22.436 22.436 0 0 0 0 0 0h94.901v113.982c0 132.27 80.761 204.266 198.747 204.266h96.849c12.391 0 22.436-10.045 22.436-22.436v0-99.482c0-12.391-10.045-22.436-22.436-22.436v0h-59.516c-64.169 0-76.577-30.479-76.577-75.243v-98.652h140.999c0.010 0 0.021 0 0.033 0 12.391 0 22.436-10.045 22.436-22.436 0-0.992-0.064-1.969-0.189-2.926l0.012 0.113-13.995-117.95c-1.363-11.206-10.818-19.803-22.281-19.803-0.004 0-0.008 0-0.011 0h-126.173l-0.721-365.753h219.524c76.198 0 137.969 61.771 137.969 137.969v0 748.062c-0.021 76.203-61.8 137.969-138.005 137.969v0z" />
<glyph unicode="&#xe937;" glyph-name="instagram" d="M718.948 960h-413.896c-168.419-0.141-304.911-136.633-305.052-305.039v-413.909c0.141-168.419 136.633-304.911 305.039-305.052h413.909c168.419 0.141 304.911 136.633 305.052 305.039v413.909c-0.141 168.419-136.633 304.911-305.039 305.052h-0.013zM920.979 241.052c0-111.579-90.452-202.031-202.031-202.031v0h-413.896c-0.021 0-0.046 0-0.071 0-111.579 0-202.031 90.452-202.031 202.031v0 413.896c0 0.021 0 0.046 0 0.071 0 111.579 90.452 202.031 202.031 202.031 0.025 0 0.050 0 0.075 0h413.891c111.579 0 202.031-90.452 202.031-202.031v0-413.967zM511.982 712.848c-146.262 0-264.831-118.569-264.831-264.831s118.569-264.831 264.831-264.831c146.262 0 264.831 118.569 264.831 264.831v0c-0.182 146.189-118.642 264.649-264.813 264.831h-0.017zM511.982 286.173c-89.384 0-161.845 72.46-161.845 161.845s72.46 161.845 161.845 161.845c89.384 0 161.845-72.46 161.845-161.845v0c0-89.384-72.46-161.845-161.845-161.845v0zM840.855 710.825c0-35.056-28.418-63.474-63.474-63.474s-63.474 28.418-63.474 63.474c0 35.056 28.418 63.474 63.474 63.474s63.474-28.418 63.474-63.474z" />
<glyph unicode="&#xe938;" glyph-name="linkedin" d="M931.362 960h-838.724c-51.163 0-92.638-41.476-92.638-92.638v0-838.724c0-51.163 41.476-92.638 92.638-92.638h838.724c51.163 0 92.638 41.476 92.638 92.638v0 838.724c0 51.163-41.476 92.638-92.638 92.638v0zM316.861 75.807c0-14.922-12.097-27.019-27.019-27.019v0h-114.678c-14.922 0-27.019 12.097-27.019 27.019v0 481.024c0 14.922 12.097 27.019 27.019 27.019v0h114.756c14.922 0 27.019-12.097 27.019-27.019v0zM232.522 629.127c-60.201 0-109.004 48.803-109.004 109.004s48.803 109.004 109.004 109.004c60.201 0 109.004-48.803 109.004-109.004v0c0-60.201-48.803-109.004-109.004-109.004v0zM916.501 73.645c0-13.686-11.095-24.781-24.781-24.781v0h-123.132c-13.686 0-24.781 11.095-24.781 24.781v0 225.613c0 33.659 9.881 147.488-87.968 147.488-75.886 0-91.287-77.932-94.375-112.864v-260.236c0-13.686-11.095-24.781-24.781-24.781v0h-119.079c-13.686 0-24.781 11.095-24.781 24.781v0 485.347c0 13.686 11.095 24.781 24.781 24.781v0h118.924c13.686 0 24.781-11.095 24.781-24.781v0-41.957c28.139 42.228 69.942 74.805 158.99 74.805 197.165 0 196.046-184.196 196.046-285.403v-232.792z" />
<glyph unicode="&#xe939;" glyph-name="filter" d="M1021.648 783.297h-515.014c-18.779 69.74-80.469 120.703-155.581 120.703s-136.8-50.966-155.581-120.703h-193.131v-80.469h193.131c18.779-69.74 80.469-120.703 155.581-120.703s136.8 50.966 155.581 120.703h515.014v80.469zM351.061 662.586c-45.6 0-80.469 34.869-80.469 80.469s34.869 80.469 80.469 80.469 80.469-34.869 80.469-80.469-34.869-80.469-80.469-80.469zM1021.648 488.234h-112.661c-18.779 69.74-80.469 120.703-155.581 120.703s-136.8-50.966-155.581-120.703h-595.483v-80.469h595.483c18.779-69.74 80.469-120.703 155.581-120.703s136.8 50.966 155.581 120.703h112.661v80.469zM753.413 367.531c-45.6 0-80.469 34.869-80.469 80.469s34.869 80.469 80.469 80.469 80.469-34.869 80.469-80.469-34.869-80.469-80.469-80.469zM1021.648 193.179h-595.483c-18.779 69.74-80.469 120.703-155.581 120.703s-136.8-50.966-155.581-120.703h-112.661v-80.469h112.661c18.779-69.74 80.469-120.703 155.581-120.703s136.8 50.966 155.581 120.703h595.483v80.469zM270.585 72.469c-45.6 0-80.469 34.869-80.469 80.469s34.869 80.469 80.469 80.469 80.469-34.869 80.469-80.469-34.869-80.469-80.469-80.469z" />
<glyph unicode="&#xe93a;" glyph-name="wheelchair-accessible" d="M609.074 405.88h-54.984c32.866-35.011 57.898-77.779 72.041-125.24l0.57-2.229h62.893l174.67-174.67 90.154 90.154-211.985 211.985zM442.312 731.199l-151.911-86.073v-262.931c0-18.587 15.068-33.655 33.655-33.655s33.655 15.068 33.655 33.655v0 184.809h59.99v-75.345c22.912-7.25 42.669-15.98 61.239-26.555l-1.543 0.809h131.507v202.856c-9.008-1.628-19.376-2.559-29.962-2.559-55.010 0-104.149 25.139-136.555 64.556l-0.245 0.307zM810.584 32.813c0-53.462-43.339-96.801-96.801-96.801s-96.801 43.339-96.801 96.801c0 53.462 43.339 96.801 96.801 96.801s96.801-43.339 96.801-96.801zM421.615 190.95c0-53.833-43.64-97.474-97.474-97.474s-97.474 43.64-97.474 97.474c0 53.833 43.64 97.474 97.474 97.474s97.474-43.64 97.474-97.474zM417.87 428.050v-45.897c0-0.104 0.001-0.227 0.001-0.351 0-19.999-6.3-38.527-17.024-53.706l0.196 0.292c48.53-27.454 80.751-78.721 80.751-137.514 0-86.965-70.499-157.464-157.464-157.464s-157.464 70.499-157.464 157.464c0 58.793 32.221 110.060 79.969 137.106l0.783 0.408c-10.528 14.887-16.828 33.415-16.828 53.414 0 0.123 0 0.246 0.001 0.37v-0.019 45.855c-95.226-38.39-161.208-130.031-161.208-237.082 0-140.798 114.14-254.938 254.938-254.938s254.938 114.14 254.938 254.938c0 107.052-65.983 198.692-159.497 236.472l-1.711 0.611zM695.946 843.144c0-64.544-52.323-116.868-116.868-116.868s-116.868 52.323-116.868 116.868c0 64.544 52.323 116.868 116.868 116.868s116.868-52.323 116.868-116.868z" />
<glyph unicode="&#xe93b;" glyph-name="sustainable-policy" d="M173.919 247.411l103.377 158.526h-41.644v96.080l76.159 140.576h-14.385v96.457l76.327 135.040-52.8 85.973h-72.175l-135.544-239.508v-56.952h30.321l-86.854-160.664v-56.613h59.552l-116.252-178.236v-57.957h173.917zM813.18 87.627v61.062h-120.488v-37.241c-27.396 3.408-59.115 5.358-91.286 5.368h-29.369v92.683l217.574-0.587v20.592l-154.332 236.656h92.599v20.592l-116.839 216.065h55.316v20.592l-133.447 236.069h-41.938l-133.321-236.069v-20.592h55.316l-117.049-216.065v-20.592h92.599l-154.332-236.656v-20.592l217.574 0.587v-92.725h-29.357c-32.184-0.010-63.903-1.96-95.057-5.739l3.758 0.371v37.241h-120.278v-61.062c-74.677-21.3-139.895-50.514-199.747-87.569l3.351 1.932-14.427-8.807v-57.203h1024v57.036l-14.427 8.807c-56.499 35.196-121.713 64.477-190.867 84.478l-5.528 1.369zM907.54 446.323h59.552v56.613l-87.021 160.664h30.321v56.952l-135.166 239.508h-72.762l-50.955-88.070 75.069-132.776v-96.457h-14.427l76.159-140.576v-96.080h-41.644l103.377-158.526v-37.286h173.917v57.791z" />
<glyph unicode="&#xe93c;" glyph-name="free-parking" d="M692.698 598.562c0 0.002 0 0.005 0 0.008 0 99.808-80.91 180.718-180.718 180.718s-180.718-80.91-180.718-180.718c0-89.171 64.583-163.258 149.526-178.036l1.080-0.155v95.153l-86.959 57.987 33.407 50.131 53.552-35.73v90.972h60.225v-90.972l53.552 35.73 33.407-50.131-87.002-57.987v-95.237c86.013 15.018 150.574 89.093 150.648 178.261v0.008zM331.599 86.605c5.35-84.151 74.812-150.403 159.792-150.606h41.156c85.072 0.111 154.628 66.396 159.958 150.138l0.024 0.467zM511.979 959.999c-199.496-0.24-361.154-161.898-361.394-361.371v-0.023c-0.076-2.651-0.119-5.771-0.119-8.901 0-52.548 12.219-102.241 33.97-146.395l-0.866 1.946c6.926-13.43 105.584-176.199 105.584-176.199 21.37-35.038 35.874-76.524 40.561-120.937l0.11-1.287h152.042v212.689c-119.364 15.48-210.62 116.504-210.62 238.842 0 132.953 107.78 240.732 240.732 240.732s240.732-107.78 240.732-240.732c0-122.338-91.256-223.361-209.41-238.713l-1.21-0.128v-212.689h152.042c4.797 45.701 19.301 87.187 41.412 123.535l-0.741-1.311 74.627 124.252c8.911 12.881 24.031 38.517 31 51.948 20.885 42.211 33.104 91.908 33.104 144.458 0 3.127-0.043 6.244-0.129 9.35l0.010-0.458c-0.24 199.51-161.922 361.178-361.416 361.394h-0.021z" />
<glyph unicode="&#xe93d;" glyph-name="user" d="M512 448c141.4 0 256 114.6 256 256s-114.6 256-256 256-256-114.6-256-256 114.6-256 256-256zM691.2 384h-33.4c-44.4-20.4-93.8-32-145.8-32s-101.2 11.6-145.8 32h-33.4c-148.4 0-268.8-120.4-268.8-268.8v-83.2c0-53 43-96 96-96h704c53 0 96 43 96 96v83.2c0 148.4-120.4 268.8-268.8 268.8z" />
<glyph unicode="&#xe93e;" glyph-name="email" d="M1004.6 578.4c7.8 6.2 19.4 0.4 19.4-9.4v-409c0-53-43-96-96-96h-832c-53 0-96 43-96 96v408.8c0 10 11.4 15.6 19.4 9.4 44.8-34.8 104.2-79 308.2-227.2 42.2-30.8 113.4-95.6 184.4-95.2 71.4-0.6 144 65.6 184.6 95.2 204 148.2 263.2 192.6 308 227.4zM512 320c46.4-0.8 113.2 58.4 146.8 82.8 265.4 192.6 285.6 209.4 346.8 257.4 11.6 9 18.4 23 18.4 37.8v38c0 53-43 96-96 96h-832c-53 0-96-43-96-96v-38c0-14.8 6.8-28.6 18.4-37.8 61.2-47.8 81.4-64.8 346.8-257.4 33.6-24.4 100.4-83.6 146.8-82.8z" />
</font>
</defs>
</svg>
